Jump to content

dsobczak96

Forumowicze
  • Posts

    88
  • Joined

  • Last visited

Reputation

-1 Słaba

About dsobczak96

  • Rank
    Ork
    Ork

Dodatkowe informacje

  • Ulubiony gatunek gier
    Array
  • Konfiguracja komputera
    Array

Informacje profilowe

  • Płeć
    Array
  1. No to chyba muszę się przyjrzeć bliżej "Piratom". Zwłaszcza, że jakimś dziwnym trafem mam na DVD
  2. Całkiem dobre... Wypowiadałeś się o tym na mirko.
  3. W ciągu wakacji przeszedłem GTA Vice City. Klimat lat 80. idealny na lato. Skończyłem też GTA4. Ciekawe czy pecetowa piątka będzie chociaż na minimalnych chodzić na 6 letnich złomkach? Ograłem (przeczytałem?) i doszedłem do jednego zakończeń z Cinders. Nasi odwalili kawał dobrej artystycznej roboty. Skoro o VNkach mowa to przeszedłem na telefonie na emulce SNESa Famicom Detective Club Part II. Motywy w niej poruszane to nie to, do czego nas przyzwyczaiło Nintendo. Chwała Tomato i Demiforce'owi za english patcha! Gra pierwotnie wyszła na FDS (taka przystawka do Famicoma na dyskietki), wersja o której piszę to remake na SNESA. Na forach spotkałem się z opinią, że to "przodek Phoenixa Wrighta". Nie powiem, byłem nieźle zaskoczony paroma twistami fabularnymi. Gorąco polecam
  4. Mam pytanko: Czy ktoś może posiada sejwa 100% , gdyż skończyłem grę na normalnym i zebrałem wszystkie strony maszynopisu tam dostępne, a nie chce mi się specjalnie od nowa przechodzić od nowa na Koszmarnym poziomie trudności by zebrać te dodatkowe kartki (wolę przejść te dodatkowe epizody i America's Nightmare)?. Jeżeli ktoś by mi podesłał, byłbym bardzo wdzięczny P.S Nie wiem czy to powinno iść do Pomocnej Dłoni, ale zaryzykuję.
  5. Kończy się Summer Sale i chciałbym sobie kupić 2-3 giery. Ważne żeby miały dobrą fabułę, może być to zarówno akcja, jak i przygodówka. Co możecie mi polecić?
  6. @up Właśnie widzę, że aktywnie się tam wypowiadasz. Na forum w wątku W3: Obawy, ktoś wrzucił taką informację
  7. Oprócz concept artów są tam też podobno info o wszystkich postaciach, bugach w alfie, ale też i kompletny zarys fabuły. (Screen z newsa na PPE.pl jakby co). Oby nie było afery na miarę wycieku bety HL2.
  8. Czujcie się ostrzeżeni (w tym też ja, który skończyłem jedynkę, no prawie gdyby nie jeden cholerny bug) http://www.pssite.com/news-34148-do_sieci_wyciekly_dokumenty_dotyczace_trzeciego_wiedzmina__strzezcie_sie_spoilerow.html
  9. Mam pytanko Jakie filmy Miyazakiego-sana poleciłbyś na początek, by się zapoznać z jego twórczością? Słyszałem o nim wiele dobrego, nawet kiedyś widziałem urywki "W krainie bogów" na Jedynce oraz "Ruchomego zamku Hauru" na TVP Kultura, ale wtedy mnie japońszczyzna nie interesowała, a nie chciałbym się teraz zrazić.
  10. Witam! Mam serial True Detective w wersji angielskiej z napisami w plikach SRT. Chciałem sobie wmuxować napisy z jakąś ładną czcionka, by móc je bez problemu odtworzyć na dekoderze DVB-T Wiwa HD-90. W Aegisubie zmieniłem czcionkę i zapisałem napisy do pliku ASS. Czytałem żeby móć je wmuxować wideo musi być w MKV a nie w MP4. Jakim programem mógłbym to zrobić i jakie ustawienia byście polecili. Oto MediaInfo jednego z odcinków Format : MPEG-4 Format profile : Base Media Codec ID : isom File size : 372 MiB Duration : 59mn 42s Overall bit rate : 870 Kbps Encoded date : UTC 2014-01-13 05:05:54 Tagged date : UTC 2014-01-13 05:05:54 Video ID : 2 Format : AVC Format/Info : Advanced Video Codec Format profile : High@L3.1 Format settings, CABAC : Yes Format settings, ReFrames : 5 frames Format settings, GOP : M=1, N=32 Codec ID : avc1 Codec ID/Info : Advanced Video Coding Duration : 59mn 42s Bit rate mode : Variable Bit rate : 763 Kbps Maximum bit rate : 15.1 Mbps Width : 720 pixels Height : 404 pixels Display aspect ratio : 16:9 Frame rate mode : Constant Frame rate : 23.976 fps Color space : YUV Chroma subsampling : 4:2:0 Bit depth : 8 bits Scan type : Progressive Bits/(Pixel*Frame) : 0.109 Stream size : 326 MiB (88%) Writing library : x264 core 140 r2377 1ca7bb9 Encoding settings : cabac=1 / ref=5 / deblock=1:0:0 / analyse=0x3:0x113 / me=umh / subme=8 / psy=1 / psy_rd=1.00:0.00 / mixed_ref=1 / me_range=16 / chroma_me=1 / trellis=1 / 8x8dct=1 / cqm=0 / deadzone=21,11 / fast_pskip=1 / chroma_qp_offset=-2 / threads=18 / lookahead_threads=3 / sliced_threads=0 / nr=0 / decimate=1 / interlaced=0 / bluray_compat=0 / constrained_intra=0 / bframes=3 / b_pyramid=2 / b_adapt=2 / b_bias=0 / direct=3 / weightb=1 / open_gop=0 / weightp=2 / keyint=250 / keyint_min=23 / scenecut=40 / intra_refresh=0 / rc_lookahead=50 / rc=crf / mbtree=1 / crf=19.0 / qcomp=0.60 / qpmin=0 / qpmax=69 / qpstep=4 / ip_ratio=1.40 / aq=1:1.00 Encoded date : UTC 2014-01-13 04:45:14 Tagged date : UTC 2014-01-13 05:05:55 Matrix coefficients : BT.709-5, BT.1361, IEC 61966-2-4 709, SMPTE RP177 Audio ID : 1 Format : AAC Format/Info : Advanced Audio Codec Format version : Version 4 Format profile : LC Format settings, SBR : No Codec ID : 40 Duration : 59mn 42s Bit rate mode : Variable Bit rate : 103 Kbps Maximum bit rate : 147 Kbps Channel(s) : 2 channels Channel positions : Front: L R Sampling rate : 48.0 KHz Compression mode : Lossy Stream size : 43.8 MiB (12%) Encoded date : UTC 2014-01-13 05:05:54 Tagged date : UTC 2014-01-13 05:05:55
  11. Ostatnimi czasy jest przygodówko. Zaliczyłem Syberię - ciekawe co na mnie czeka w dwójce? Potem zajmę za Cinders z CDA i/lub wreszcie wrócę do calakowania GTA4 (chyba będę musiał od nowa bo pogubiłem się w liczeniu gołębi)
  12. Witam! Jakiś czas temu grałem w pierwszego Asasyna, teraz korzystając z okazji nabyłem CD Action, zainstalowałem i szybko natknąłem się na problem. Tak jak napisałem w temacie gra crashuje się przy autozapisie po ukończeniu tutoriala. Nie wiem, co moze to powodować. Czy może to być przez to, że na partycji D na której zainstalowałem grę była dawno temu, gdy miałem jeszcze XP, polska wersja gry, więc folder się zachował po przesiadce na Win7 3 lata temu. Na jego miejsce zainstalowałem wersję z CDA.
  13. Jakim cudem wbijały się acziki, skoro GfWL jest wyłączone (przynajmniej miało być na początku roku)? Jechałeś na padzie X'owym, czy użyłeś innego (np. Dualshocka)?
  14. Chodzi o humor? Ogólnie panuje tu humor "tak głupi że aż śmieszny"
  15. Ktoś z was ogląda Downtown no Gaki no Tsukai Ya Arahende? Matsumoto i jego ekipa normalnie niszczą system. Jeśli chciecie się dowiedzieć co to jest poczytajcie http://batsugame.pl/o-co-chodzi-jakby/ Oto przykłady: Jedne ze starszych Obelgi słowne http://www.dailymoti...elgi-slowne_fun Cicha biblioteka (może niektórzy to widzieli, bo było to kiedyś na memach, tę właśnie zabawę zapoczątkowała ekipa GnT) http://www.dailymoti...a-2001-2004_fun Teleturniej http://www.dailymoti...urniej-itao_fun A największa beka jest z Batsu Game organizowanych co roku w Sylwestra. Oto materiały z ostatniego http://batsugame.pl/ogladaj/batsu-game/batsu-game-oddzial-obroncow-ziemi-20132014/ Na http://batsugame.pl co jakiś czas wychodzą kolejne przetłumaczone materiały.
×
×
  • Create New...